Дерсу Узала скачать в Хорошем Качестве

      Комментарии к записи Дерсу Узала скачать в Хорошем Качестве отключены

Уважаемый гость, на данной странице Вам доступен материал по теме: Дерсу Узала скачать в Хорошем Качестве. Скачивание возможно на компьютер и телефон через торрент, а также сервер загрузок по ссылке ниже. Рекомендуем также другие статьи из категории «Файлы».

Дерсу Узала скачать в Хорошем Качестве.rar
Закачек 3359
Средняя скорость 6715 Kb/s

Дерсу Узала скачать в Хорошем Качестве

Скачать фильм «Дерсу Узала» через торрент бесплатно

2280 Кбит/с, 720×438@1024×438
Звук: AC3, 2 ch, 224 Кбит/с
Видео: Идентификатор : 1 Формат : AVC Формат/Информация : Advanced Video Codec Профиль формата : High@L4.1 Параметр CABAC формата : Да Параметр ReFrames формата : 13 кадров Идентификатор кодека : V_MPEG4/ISO/AVC Продолжительность : 1 ч. 7 м. Битрейт : 2275 Кбит/сек Ширина : 720 пикселей Высота : 438 пикселей Соотношение сторон : 2,35:1 Режим частоты кадров : Постоянный Частота кадров : 25,000 кадров/сек Цветовое пространство : YUV Субдискретизация насыщенности : 4:2:0 Битовая глубина : 8 бит Тип развёртки : Прогрессивная Бит/(Пиксели*Кадры) : 0.289 Размер потока : 1,05 Гбайт (89%) Библиотека кодирования : x264 core 146 r2538 121396c Настройки программы : cabac=1 / ref=13 / deblock=1:-2:-2 / analyse=0x3:0x133 / me=umh / subme=10 / psy=1 / psy_rd=1.05:0.10 / mixed_ref=1 / me_range=32 / chroma_me=1 / trellis=2 / 8x8dct=1 / cqm=0 / deadzone=21,11 / fast_pskip=0 / chroma_qp_offset=-3 / threads=12 / lookahead_threads=3 / sliced_threads=0 / nr=0 / decimate=0 / interlaced=0 / bluray_compat=0 / constrained_intra=0 / bframes=11 / b_pyramid=2 / b_adapt=2 / b_bias=0 / direct=3 / weightb=1 / open_gop=0 / weightp=2 / keyint=250 / keyint_min=25 / scenecut=40 / intra_refresh=0 / rc=2pass / mbtree=0 / bitrate=2275 / ratetol=1.0 / qcomp=0.65 / qpmin=0 / qpmax=39 / qpstep=4 / cplxblur=20.0 / qblur=0.5 / ip_ratio=1.40 / pb_ratio=1.30 / aq=1:1.00 Язык : English Default : Да Forced : Нет Основные цвета : BT.601 PAL Характеристики трансфера : BT.470 System B, BT.470 System G Коэффициенты матрицы : BT.601
Аудио: Идентификатор : 2 Формат : AC-3 Формат/Информация : Audio Coding 3 Расширение режима : CM (complete main) Параметр Endianness формата : Big Идентификатор кодека : A_AC3 Продолжительность : 1 ч. 7 м. Вид битрейта : Постоянный Битрейт : 224 Кбит/сек Каналы : 2 канала Расположение каналов : Front: L R Частота : 48,0 КГц Битовая глубина : 16 бит Метод сжатия : С потерями Размер потока : 108 Мбайт (9%) Язык : Russian Default : Да Forced : Нет

2243 Кбит/с, 720×432@1024×432
Звук: AC3, 2 ch, 224 Кбит/с

1980 kbps avg, 0.36 bit/pixel
Аудио: 48 kHz, AC3 Dolby Digital, 2/0 (L,R) ch,

8000 Kbps
Звук: Русский (Dolby AC3, 2 ch), 48000 Hz, 224 Kbps

2423 kbps.
Звук: 48 kHz, AC3 Dolby Digital, 3/2 (L,C,R,l,r) + LFE ch,

Дата выхода в России (или в Мире): 01.01.1961

Продолжительность: 01:21:04

Экранизация по произведению: Владимир Арсеньев

Режиссер: Агаси Бабаян

Весной 1908 года Владимир Клавдиевич Арсеньев узнал, что в тайге найден убитый иноверец, у которого оказалась его визитная карточка. Арсеньев узнал в нем своего друга — старого охотника Дерсу Узалу, одного из немногих, кто действительно хорошо знал тайгу — знал ее законы, власть и беззащитность. В свое время именно он помог Арсеньеву найти корень женьшень и каменный уголь, вынес его из пылающего леса, разделял с отрядом ученого-путешественника все трудности зимнего перехода.

1745 kbps avg, 0.332 bit/pixel
Аудио: AC3, 48 kHz, 6 ch,

448.00 kbps avg | русский |
Субтитры: Отсутствуют

Скачать торрент Дерсу Узала бесплатно

Не забывайте оставаться на раздаче после того, как скачали торрент! Помогите скачать и другим — поддержите свободный обмен!

Скачать похожие торренты

Ресурс N-TORRENTS.RU не содержит никакой нелегальной информации. На сервере хранятся только торрент-файлы, содержащие в себе хеш-суммы файлов, свободно доступных в Сети.

Владельцы данного ресурса не несут ответственности за действия пользователей, размещающих здесь информацию, охраняемую авторским правом. Если Вы — обладатель авторских прав на материал, Вы можете связаться с нами через форму обратной связи и прекратить размещение его копий на всех страницах сайта. Мы оставляем за собой право потребовать у вас правоустанавливающие документы. Максимальное время рассмотрения жалобы — 48 часов с момента получения письма. Данный ресурс полностью анонимный: IP-адреса и действия пользователей не сохраняются.


Статьи по теме