Я и Моя Тень скачать

      Комментарии к записи Я и Моя Тень скачать отключены

Уважаемый гость, на данной странице Вам доступен материал по теме: Я и Моя Тень скачать. Скачивание возможно на компьютер и телефон через торрент, а также сервер загрузок по ссылке ниже. Рекомендуем также другие статьи из категории «Торренты».

Я и Моя Тень скачать.rar
Закачек 2524
Средняя скорость 5351 Kb/s

Я и Моя Тень скачать

1861 kbps avg, 0.27 bit/pixel
Аудио: 48 kHz, AC3 Dolby Digital, 2/0 (L,R) ch,

Скачать торрент Двое: Я и моя тень бесплатно

Не забывайте оставаться на раздаче после того, как скачали торрент! Помогите скачать и другим — поддержите свободный обмен!

Скачать похожие торренты

Ресурс N-TORRENTS.RU не содержит никакой нелегальной информации. На сервере хранятся только торрент-файлы, содержащие в себе хеш-суммы файлов, свободно доступных в Сети.

Владельцы данного ресурса не несут ответственности за действия пользователей, размещающих здесь информацию, охраняемую авторским правом. Если Вы — обладатель авторских прав на материал, Вы можете связаться с нами через форму обратной связи и прекратить размещение его копий на всех страницах сайта. Мы оставляем за собой право потребовать у вас правоустанавливающие документы. Максимальное время рассмотрения жалобы — 48 часов с момента получения письма. Данный ресурс полностью анонимный: IP-адреса и действия пользователей не сохраняются.

Скачать фильм «Двое: Я и моя тень» через торрент бесплатно

1861 kbps avg, 0.27 bit/pixel
Аудио: 48 kHz, AC3 Dolby Digital, 2/0 (L,R) ch,

895 kbps avg, 0.17 bit/pixel
Аудио: 48 kHz, MPEG Layer 3, 2 ch,

6000 kbps avg
Аудио 1: 48 kHz, AC3, 2/0 (L,R) ch,

192.00 kbps avg
Аудио 2: 48 kHz, AC3, 3/2 (L,C,R,l,r) + LFE ch,

384.00 kbps avg
Аудио 3: 48 kHz, AC3, 3/2 (L,C,R,l,r) + LFE ch,

384.00 kbps avgMediaInfoДвое — я и моя тень (It Takes Two) 720p.mkv General Complete name : Двое — я и моя тень (It Takes Two) 720p.mkv Format : Matroska File size : 4.90 GiB Duration : 1h 40mn Overall bit rate : 6 961 Kbps Encoded date : UTC 2011-10-29 12:03:50 Writing application : mkvmerge v4.4.0 (‘Die Wiederkehr’) built on Oct 31 2010 21:52:48 Writing library : libebml v1.0.0 + libmatroska v1.0.0 Video #1 ID : 1 Format : AVC Format/Info : Advanced Video Codec Format profile : High@L3.1 Format settings, CABAC : Yes Format settings, ReFrames : 5 frames Muxing mode : Container profile=Unknown@3.1 Codec ID : V_MPEG4/ISO/AVC Duration : 1h 40mn Bit rate : 5 862 Kbps Nominal bit rate : 6 000 Kbps Width : 1 280 pixels Height : 720 pixels Display aspect ratio : 16:9 Frame rate : 23.976 fps Resolution : 24 bits Colorimetry : 4:2:0 Scan type : Progressive Bits/(Pixel*Frame) : 0.265 Stream size : 4.13 GiB (84%) Writing library : x264 core 116 r2074 2641b9e Encoding settings : cabac=1 / ref=5 / deblock=1:0:0 / analyse=0x3:0x113 / me=esa / subme=9 / psy=1 / psy_rd=1.00:0.00 / mixed_ref=1 / me_range=16 / chroma_me=1 / trellis=1 / 8x8dct=1 / cqm=0 / deadzone=21,11 / fast_pskip=1 / chroma_qp_offset=-2 / threads=3 / sliced_threads=0 / nr=0 / decimate=1 / interlaced=0 / bluray_compat=0 / constrained_intra=0 / bframes=3 / b_pyramid=2 / b_adapt=1 / b_bias=0 / direct=1 / weightb=1 / open_gop=0 / weightp=2 / keyint=250 / keyint_min=23 / scenecut=40 / intra_refresh=0 / rc_lookahead=40 / rc=2pass / mbtree=1 / bitrate=6000 / ratetol=1.0 / qcomp=0.60 / qpmin=0 / qpmax=69 / qpstep=4 / cplxblur=20.0 / qblur=0.5 / ip_ratio=1.40 / aq=1:1.00 Audio #2 ID : 2 Format : AC-3 Format/Info : Audio Coding 3 Codec ID : A_AC3 Duration : 1h 40mn Bit rate mode : Constant Bit rate : 192 Kbps Channel(s) : 2 channels Channel positions : L R Sampling rate : 48.0 KHz Stream size : 139 MiB (3%) Title : 48 kHz, AC3, 2/0,

192.00 kbps |Многоголосый закадровый| Language : Russian Audio #3 ID : 3 Format : AC-3 Format/Info : Audio Coding 3 Codec ID : A_AC3 Duration : 1h 40mn Bit rate mode : Constant Bit rate : 384 Kbps Channel(s) : 6 channels Channel positions : Front: L C R, Surround: L R, LFE Sampling rate : 48.0 KHz Stream size : 277 MiB (6%) Title : 48 kHz, AC3, 3/2,

384.00 kbps |Одноголосый закадровый, А.Гаврилов| Language : Russian Audio #4 ID : 4 Format : AC-3 Format/Info : Audio Coding 3 Codec ID : A_AC3 Duration : 1h 40mn Bit rate mode : Constant Bit rate : 384 Kbps Channel(s) : 6 channels Channel positions : Front: L C R, Surround: L R, LFE Sampling rate : 48.0 KHz Stream size : 277 MiB (6%) Title : 48 kHz, AC3, 3/2,

384.00 kbps Text #5 ID : 5 Format : UTF-8 Codec ID : S_TEXT/UTF8 Codec ID/Info : UTF-8 Plain Text Language : Russian Text #6 ID : 6 Format : UTF-8 Codec ID : S_TEXT/UTF8 Codec ID/Info : UTF-8 Plain Text

Мы немного изменили элементы на странице с фильмом таким образом, чтобы кинолюбителям было максимально удобно найти всю необходимую информацию о фильме, посмотреть его онлайн, скачать или использовать другой многочисленный функционал нашего сайта. Основное нововведение — плеер для онлайн просмотра расположен вверху страницы.

Теперь у нас на сайте есть возможность смотреть фильмы онлайн

Рады сообщить вам о том, что теперь на сайте есть возможность смотреть фильмы онлайн. Также добавлены и другие полезные функции.

Не всплывает окошко авторизации, добавления нового сообщения и другие окна.

Временная техническая неполадка возникла из-за того, что AdBlock ввел новые правила для блокирования окон. Теперь ошибка устранена, и если у вас все еще недоступны некоторые функции, обновите подписки в настройках приложения ADBlock.


Статьи по теме