Звездные Войны 1 Часть скачать

      Комментарии к записи Звездные Войны 1 Часть скачать отключены

Уважаемый гость, на данной странице Вам доступен материал по теме: Звездные Войны 1 Часть скачать. Скачивание возможно на компьютер и телефон через торрент, а также сервер загрузок по ссылке ниже. Рекомендуем также другие статьи из категории «Файлы».

Звездные Войны 1 Часть скачать.rar
Закачек 3793
Средняя скорость 2378 Kb/s

Звездные Войны 1 Часть скачать


Название: Звездные войны: Эпизод 1 – Скрытая угроза
Оригинальное название: Star Wars: Episode I — The Phantom Menace
Год: 1999
Страна: США
Слоган: «У каждой саги есть начало»
Режиссер: Джордж Лукас
В главных ролях: Лиам Нисон, Юэн МакГрегор, Натали Портман, Джейк Ллойд, Иэн МакДайармид, Рэй Парк, Теренс Стэмп, Сэмюэл Л. Джексон, Пернилла Аугуст, Хью Куарши
Жанр: фантастика, фэнтези, боевик, приключения
Премьера (мир): 19 мая 1999, .
Дата выхода в России: 29 июля 1999, «Двадцатый Век Фокс СНГ»
Дата выхода на DVD: 9 декабря 2010, «Двадцатый Век Фокс СНГ»
Время: 136 мин. / 02:16

Между независимой планетой Набу и Торговой Федерацией разгорается конфликт из-за налогов. Главарь Ситхов приказывает лидерам остальных планет ликвидировать послов нейтральной стороны, джедая Квай-Гона и падавана Оби-Вана, и захватить власть на планете Набу. Но во время нападения послам удаётся сбежать с планеты с королевой Падме Амидалой. Они решают лететь в Корусант — столицу всего мира и добиться справедливости.

Во время перелёта делегация вынуждена остановиться на планете Татуин. Там королева и джедаи знакомятся с молодым человеком, который обладает необычайной Силой — Энакеном Скайвокером. Таким образом, к их компании присоединяется Энакин. Ему предстоит пройти обучения Силе служащей Светлой стороне.

Огорчённая несправедливостью и отказом сената в столице Корусант, королева планеты Набу возвращается на родину. Собрав там небольшой отряд и проведя авантюрную операцию, ей удаётся захватить в плен членов новой власти.

640.00 kbps avg (Рус) Субтитры: Русские , Английские

10705 Кбит/сек Аудио: Русский, AC3, 6 ch, 448 Кбит/сек (дубляж с DVD со вставками озвучки Tycoon на места без дублированого перевода) Субтитры: Русские, вшитые, отключаемые

32330 kbps / 23,976 fps / 16:9 / High Profile 4.1 Аудио: Russian: 48 kHz, DTS, 3/2 (L,C,R,l,r) + LFE ch,

768.00 kbps | Дубляж, Blu-ray CEE Субтитры: Russian (Tycoon-Studio), Russian (Blu-ray CEE), Russian (Commentary №1), Russian (Commentary №2), Russian (Forced), English, English (Commentary №1), English (Commentary №2), English (Forced)

Скачать фильм «Звездные войны: Эпизод 1 – Скрытая угроза» через торрент бесплатно

2160 kbps avg, 0.203 bit/pixel
Аудио: 48 kHz, Dolby Digital AC3 5.1, 448 kbps DUB
Аудио: 48 kHz, Dolby Digital AC3 5.1, 448 kbps Английский
Субтитры: SoftSub (srt)
Видео: Идентификатор : 1 Формат : AVC Формат/Информация : Advanced Video Codec Профиль формата : High@L4.1 Параметр CABAC формата : Да Параметр ReFrames формата : 8 кадров Идентификатор кодека : V_MPEG4/ISO/AVC Продолжительность : 2 ч. 16 м. Битрейт : 2160 Кбит/сек Ширина : 1024 пикселя Высота : 434 пикселя Соотношение сторон : 2,35:1 Режим частоты кадров : Постоянный Частота кадров : 23,976 кадра/сек Цветовое пространство : YUV Субдискретизация насыщенности : 4:2:0 Битовая глубина : 8 бит Тип развёртки : Прогрессивная Бит/(Пиксели*Кадры) : 0.203 Размер потока : 2,00 Гбайт (69%) Заголовок : Источник BDRemux Библиотека кодирования : x264 core 138 r2356 a1d3d17 Настройки программы : cabac=1 / ref=8 / deblock=1:-3:-2 / analyse=0x3:0x113 / me=umh / subme=10 / psy=1 / psy_rd=1.00:0.05 / mixed_ref=1 / me_range=32 / chroma_me=1 / trellis=2 / 8x8dct=1 / cqm=0 / deadzone=21,11 / fast_pskip=0 / chroma_qp_offset=-3 / threads=6 / lookahead_threads=1 / sliced_threads=0 / nr=0 / decimate=0 / interlaced=0 / bluray_compat=0 / constrained_intra=0 / bframes=8 / b_pyramid=2 / b_adapt=2 / b_bias=0 / direct=3 / weightb=1 / open_gop=0 / weightp=2 / keyint=240 / keyint_min=24 / scenecut=40 / intra_refresh=0 / rc_lookahead=40 / rc=2pass / mbtree=1 / bitrate=2160 / ratetol=1.0 / qcomp=0.60 / qpmin=0 / qpmax=69 / qpstep=4 / cplxblur=20.0 / qblur=0.5 / ip_ratio=1.40 / aq=1:1.00 Язык : English Default : Да Forced : Нет
Аудио #1: Идентификатор : 2 Формат : AC-3 Формат/Информация : Audio Coding 3 Расширение режима : CM (complete main) Параметр Endianness формата : Big Идентификатор кодека : A_AC3 Продолжительность : 2 ч. 16 м. Вид битрейта : Постоянный Битрейт : 448 Кбит/сек Каналы : 6 каналов Расположение каналов : Front: L C R, Side: L R, LFE Частота : 48,0 КГц Битовая глубина : 16 бит Метод сжатия : С потерями Размер потока : 436 Мбайт (15%) Заголовок : Источник BDRemux Dolby Digital 5,1 448 kbps DUB Язык : Russian Default : Да Forced : Нет
Аудио #2: Идентификатор : 3 Формат : AC-3 Формат/Информация : Audio Coding 3 Расширение режима : CM (complete main) Параметр Endianness формата : Big Идентификатор кодека : A_AC3 Продолжительность : 2 ч. 16 м. Вид битрейта : Постоянный Битрейт : 448 Кбит/сек Каналы : 6 каналов Расположение каналов : Front: L C R, Side: L R, LFE Частота : 48,0 КГц Битовая глубина : 16 бит Метод сжатия : С потерями Размер потока : 436 Мбайт (15%) Заголовок : Источник BDRemux Dolby Digital 5,1 448 kbps Язык : English Default : Нет Forced : Нет

1895 kbps avg, 0.36 bit/pixel
Аудио: 48 kHz, AC3 Dolby Digital, 3/2 (L,C,R,l,r) + LFE ch,

1325 kbps avg, 0.25 bit/pixel
Аудио: 48 kHz, AC3 Dolby Digital, 2/0 (L,R) ch,

666 kbps avg, 0.16 bit/pixel
Аудио: 48 kHz, MPEG Layer 3, 2 ch,

3393 Кбит/сек
Аудио 1: AC3 5.1, 448 Кбит/сек [русский]
Аудио 2: AC3 5.1, 448 Кбит/сек [английский]
Видео: Идентификатор : 224 (0xE0) Формат : MPEG Video Версия формата : Version 2 Профиль формата : Main@Main Параметр BVOP формата : Да Параметр матрицы формата : Выборочная Параметр GOP формата : M=3, N=15 Продолжительность : 32 м. Вид битрейта : Переменный Битрейт : 3393 Кбит/сек Максимальный битрейт : 8000 Кбит/сек Ширина : 720 пикселей Высота : 576 пикселей Соотношение сторон : 16:9 Частота кадров : 25,000 кадров/сек Стандарт вещания : PAL Цветовое пространство : YUV Субдискретизация насыщенности : 4:2:0 Битовая глубина : 8 бит Тип развёртки : Чересстрочная Порядок развёртки : Верхнее поле первое Метод сжатия : С потерями Бит/(Пиксели*Кадры) : 0.327 Размер потока : 794 Мбайт (78%)
Аудио #1: Идентификатор : 189 (0xBD)-128 (0x80) Формат : AC-3 Формат/Информация : Audio Coding 3 Расширение режима : CM (complete main) Параметр Endianness формата : Big Режим смешивания : DVD-Video Продолжительность : 32 м. Вид битрейта : Постоянный Битрейт : 448 Кбит/сек Каналы : 6 каналов Расположение каналов : Front: L C R, Side: L R, LFE Частота : 48,0 КГц Битовая глубина : 16 бит Метод сжатия : С потерями Размер потока : 105 Мбайт (10%)
Аудио #2: Идентификатор : 189 (0xBD)-129 (0x81) Формат : AC-3 Формат/Информация : Audio Coding 3 Расширение режима : CM (complete main) Параметр Endianness формата : Big Режим смешивания : DVD-Video Продолжительность : 32 м. Вид битрейта : Постоянный Битрейт : 448 Кбит/сек Каналы : 6 каналов Расположение каналов : Front: L C R, Side: L R, LFE Частота : 48,0 КГц Битовая глубина : 16 бит Метод сжатия : С потерями Размер потока : 105 Мбайт (10%)
Видео: AviSynth — обработка видео ProCoder 3 — конвертация видео

1674 kbps avg, 0.256 bit/pixel
Звук: 48.000 kHz, Dolby AC3, 2 ch,

1267 kbps avg, 0.24 bit/pixel
Аудио: 48 kHz, AC3 Dolby Digital, 2/0 (L,R) ch,

640.00 kbps avg (Рус) 2: 48 kHz, AC3, 3/2 (L,C,R,l,r),

640.00 kbps avg (Ориг)
Субтитры: Русские , Английские
Видео: Идентификатор : 1 Формат : AVC Формат/Информация : Advanced Video Codec Профиль формата : High@L4.1 Параметр CABAC формата : Да Параметр ReFrames формата : 5 кадров Параметры GOP формата : M=1, N=24 Идентификатор кодека : V_MPEG4/ISO/AVC Продолжительность : 2 ч. 16 м. Битрейт : 5611 Кбит/сек Ширина : 1920 пикс. Высота : 816 пикс. Соотношение сторон : 2,35:1 Частота кадров : 23,976 кадр/сек Цветовое пространство : YUV Подвыборка цветности : 4:2:0 Битовая глубина : 8 бит Тип развёртки : Прогрессивная Бит/(Пиксели*Кадры) : 0.149 Размер потока : 5,22 Гбайт (79%) Библиотека кодирования : x264 core 116 r2074 2641b9e Настройки программы : cabac=1 / ref=5 / deblock=1:-2:-2 / analyse=0x3:0x113 / me=umh / subme=9 / psy=1 / psy_rd=1.00:0.15 / mixed_ref=1 / me_range=32 / chroma_me=1 / trellis=1 / 8x8dct=1 / cqm=0 / deadzone=21,11 / fast_pskip=0 / chroma_qp_offset=-3 / threads=6 / sliced_threads=0 / nr=0 / decimate=1 / interlaced=0 / bluray_compat=0 / constrained_intra=0 / bframes=6 / b_pyramid=2 / b_adapt=2 / b_bias=0 / direct=3 / weightb=1 / open_gop=0 / weightp=2 / keyint=250 / keyint_min=23 / scenecut=40 / intra_refresh=0 / rc=2pass / mbtree=0 / bitrate=5611 / ratetol=1.0 / qcomp=1.00 / qpmin=0 / qpmax=69 / qpstep=4 / cplxblur=20.0 / qblur=0.5 / ip_ratio=1.40 / pb_ratio=1.30 / aq=1:1.00 Язык : English
Аудио #1: Идентификатор : 2 Формат : AC-3 Формат/Информация : Audio Coding 3 Расширение режима : CM (complete main) Идентификатор кодека : A_AC3 Продолжительность : 2 ч. 16 м. Вид битрейта : Постоянный Битрейт : 640 Кбит/сек Каналы : 6 каналов Расположение каналов : Front: L C R, Side: L R, LFE Частота : 48,0 КГц Битовая глубина : 16 бит Метод сжатия : С потерями Размер потока : 623 Мбайт (9%) Язык : Russian
Аудио #2: Идентификатор : 3 Формат : AC-3 Формат/Информация : Audio Coding 3 Расширение режима : CM (complete main) Идентификатор кодека : A_AC3 Продолжительность : 2 ч. 16 м. Вид битрейта : Постоянный Битрейт : 640 Кбит/сек Каналы : 6 каналов Расположение каналов : Front: L C R, Side: L R, LFE Частота : 48,0 КГц Битовая глубина : 16 бит Метод сжатия : С потерями Размер потока : 623 Мбайт (9%) Язык : English


Статьи по теме